A-A+

侏罗纪世界 2015.2160p.BluRay.x265.10bit.SDR.DTS-X.7.1-SWTYBLZ 36GB 百度云网盘BT迅雷下载

2018年05月23日 电影大全 暂无评论 阅读 0 次

-->

Jurassic.World.2015.2160p.BluRay.x265.10bit.SDR.DTS-X.7.1-SWTYBLZ

简介数据

                             ▇BT‭之家:BTBTT.ME▇

⎝⎛‭ ‭⎞⎠⊙译名 侏罗纪世界/侏罗纪公园4/Jurassic Park IV/Jurassic Park 4
⎝⎠‭B‭⎝⎠⊙原名 Jurassic World
⎛⎞‭T‭⎛⎞⊙年代 2015                    ▇BT‭之家:BTBTT.ME▇
⎝⎛‭之‭⎞⎠⊙产地 美国/中国大陆
⎝⎛‭家‭⎞⎠⊙类型 动作/科幻/冒险
⎛⎞‭网‭⎛⎞⊙语言 英语
⎝⎠‭站‭⎝⎠⊙片长 124分钟
⎛⎞‭ ‭⎛⎞⊙标语 公园营业中
⎝⎠‭ ‭⎝⎠⊙主页 http://www.jurassicworld.com/
⎝⎠‭ ‭⎝⎠⊙评级 MPAA:` PG-13
⎛⎞‭ ‭⎛⎞⊙来源 BTBTT.ME & Welcome to
⎝⎠‭B‭⎝⎠⊙上映 2015-06-10(中国大陆)/2015-06-12(美国)
⎝⎛‭T‭⎞⎠⊙评分 7.0/10 from 491,368 users
⎛⎞‭B‭⎛⎞⊙链接 IMDb Movies Page Jump         ▇BT‭之家:BTBTT.ME▇
⎝⎛‭T‭⎞⎠⊙豆瓣 7.6/10 from 217,058 users
⎝⎝‭T‭⎠⎠⊙链接 douban Movies Page Jump        ▇BT‭之家:BTBTT.ME▇
⎝⎝‭.‭⎠⎠⊙导演 科林·特雷沃罗 Colin Trevorrow
⎛⎞‭M‭⎛⎞⊙制贴 Stupid dog
⎠⎠‭E‭⎝⎝⊙编剧 里克·杰法 Rick Jaffa
⎝⎝‭ ‭⎠⎠    阿曼达·斯尔沃 Amanda Silver
⎝⎝‭ ‭⎠⎠    德里克·康纳利 Derek Connolly
⎝⎝‭ ‭⎠⎠    科林·特雷沃罗 Colin Trevorrow
⎝⎝‭ ‭⎠⎠    迈克尔·克莱顿 Michael Crichton
⎠⎠‭ ‭⎝⎝⊙主演 克里斯·普拉特 Chris Pratt
⎠⎠‭ ‭⎝⎝    布莱丝·达拉斯·霍华德 Bryce Dallas Howard
⎠⎠‭ ‭⎝⎝    文森特·多诺费奥 Vincent D'Onofrio
⎠⎠‭ ‭⎝⎝    泰·辛普金斯 Ty Simpkins
⎠⎠‭ ‭⎝⎝    尼克·罗宾森 Nick Robinson
⎠⎠‭ ‭⎝⎝    奥玛·赛 Omar Sy
⎠⎠‭ ‭⎝⎝    黄荣亮 B.D. Wong
⎠⎠‭ ‭⎝⎝    伊尔凡·可汗 Irrfan Khan
⎠⎠‭ ‭⎝⎝    朱迪·格雷尔 Judy Greer
⎠⎠‭ ‭⎝⎝    杰克·约翰逊 Jake M. Johnson
⎠⎠‭ ‭⎝⎝    劳伦·拉普库斯 Lauren Lapkus
⎠⎠‭ ‭⎝⎝    凯蒂·麦克格拉思 Katie McGrath
⎠⎠‭ ‭⎝⎝    布莱恩·泰 Brian Tee
⎠⎠‭ ‭⎝⎝    埃迪·J.费尔南德斯 Eddie J. Fernandez
⎠⎠‭ ‭⎝⎝    因德尔·库马尔 Inder Kumar
⎠⎠‭ ‭⎝⎝    安迪·巴克利 Andy Buckley
⎠⎠‭ ‭⎝⎝    吉米·法伦 Jimmy Fallon
                                                                                                                                                

                             ▇BT‭之家:BTBTT.ME▇

相关信息

    ⊙剧情

      21世纪,曾经诞生过第一只恐龙的努布拉岛,在经历了一系列的惨剧之后迎来新的时代,如今这里经马斯拉尼之手建成了规模宏大的主题公园“侏罗纪世界”,数量繁多的远古生物每天都吸引数以万计的游客前来一饱眼福。为了吸引更多的游客,公司授意创意实验室采用不同动物的基因创造了集力量、速度和智慧于一体的暴虐霸王龙。作为负责人的克莱尔(布莱丝·达拉斯·霍华德 Bryce Dallas Howard 饰)原打算请专门负责迅猛龙的欧文·格雷迪(克里斯·普拉特 Chris Pratt 饰)评估暴虐霸王龙的防护设施,谁知这头可怕的怪物竟然骗过了精密仪器的监视和人类的眼睛,以迅雷不及掩耳的速度逃到了外面,随后对所见的一切生物展开了无差别的血腥屠杀。 原本快乐祥和的公园乱作一团,克莱尔必须深入危险之地救出两个被困的外甥,而欧文则不可避免地带着他的迅猛龙猎人团队迎战史无前例的的可怕对手…… 帖子编辑,BT‭之家:BTBTT.ME 高清电影版块,循序渐进一点一滴的,帖子面貌慢慢的走向"核颜值方式"。

    ⊙获奖

      第43届动画安妮奖  (2016)
      最佳真人电影动画效果(提名)
      最佳真人电影动画角色(提名)
      
      第22届美国演员工会奖  (2016)
      电影最佳特技群戏(提名)
      
      第14届美国视觉效果协会奖  (2016)
      最佳真人电影CG背景(提名)
      最佳电影模型(提名)
      
      第21届美国评论家选择电影奖  (2016)
      最佳动作片(提名)
      动作片最佳男主角(提名) 克里斯·帕拉特
      动作片最佳女主角(提名) 布莱丝·达拉斯·霍华德
      最佳科幻/恐怖片(提名)
      最佳视觉效果(提名)
      
      第17届美国青少年选择奖  (2015)
      最佳电影反派(提名) 文森特·多诺费奥
      ChoiceMovie:HissyFit(提名) 布莱丝·达拉斯·霍华德
      最佳暑期电影(提名)
      最佳暑期电影男演员(提名) 克里斯·帕拉特
      最佳暑期电影女演员(提名) 布莱丝·达拉斯·霍华德
      
      第2届豆瓣电影年度榜单  (2015)
      最受关注的院线电影(提名)
      6月最受关注电影
      
      第6届豆瓣电影鑫像奖  (2016)
      豆渣单元最渣女演员(外语)(提名) 布莱丝·达拉斯·霍华德

    ⊙标签 科幻 | 恐龙 | 美国 | 冒险 | 2015 | 动作 | 惊悚 | 3D

    ⊙词帖 Monster | Dna | Tyrannosaurus Rex | Velociraptor | Island | Animal Attack | Sequel | Suspense | Disaster | Escape | Dinosaur | Amusement Park | Theme Park | Jurassic Park | 3d | Animal Horror

    ⊙类似 

                   

    ⊙推荐 

                   
                                                                                                                                                

                             ▇BT‭之家:BTBTT.ME▇

Video
ID                                       : 1
Format                                   : HEVC
Format/Info                              : High Efficiency Video Coding
Format profile                           : Main 10@L5.1@High
Codec ID                                 : V_MPEGH/ISO/HEVC
Duration                                 : 2 h 4 min
Bit rate                                 : 37.5 Mb/s
Width                                    : 3 840 pixels
Height                                   : 1 920 pixels
Display aspect ratio                     : 2.000
Frame rate mode                          : Constant
Frame rate                               : 23.976 (24000/1001) FPS
Color space                              : YUV
Chroma subsampling                       : 4:2:0
Bit depth                                : 10 bits
Bits/(Pixel*Frame)                       : 0.212
Stream size                              : 32.6 GiB (91%)
Title                                    : Jurassic.World.2015.2160p.BluRay.x265.10bit.SDR.DTS-X.7.1-SWTYBLZ
Writing library                          : x265 2.5b4a5bcfe29c7:[Windows][GCC 4.9.3][64 bit] 10bit
Encoding settings                        : cpuid=1173503 / frame-threads=16 / numa-pools=24,24,24,24 / wpp / no-pmode / no-pme / no-psnr / no-ssim / log-level=2 / input-csp=1 / input-res=3840x1920 / interlace=0 / total-frames=0 / level-idc=51 / high-tier=1 / uhd-bd=0 / ref=3 / no-allow-non-conformance / repeat-headers / annexb / aud / hrd / info / hash=0 / no-temporal-layers / no-open-gop / min-keyint=1 / keyint=24 / bframes=4 / b-adapt=2 / b-pyramid / bframe-bias=0 / rc-lookahead=25 / lookahead-slices=4 / scenecut=40 / no-intra-refresh / ctu=64 / min-cu-size=8 / no-rect / no-amp / max-tu-size=32 / tu-inter-depth=1 / tu-intra-depth=1 / limit-tu=0 / rdoq-level=0 / dynamic-rd=0.00 / no-ssim-rd / signhide / no-tskip / nr-intra=0 / nr-inter=0 / no-constrained-intra / strong-intra-smoothing / max-merge=2 / limit-refs=3 / no-limit-modes / me=1 / subme=2 / merange=57 / temporal-mvp / weightp / no-weightb / no-analyze-src-pics / deblock=0:0 / no-sao / no-sao-non-deblock / rd=3 / no-early-skip / rskip / no-fast-intra / no-tskip-fast / no-cu-lossless / no-b-intra / rdpenalty=0 / psy-rd=2.00 / psy-rdoq=0.00 / no-rd-refine / analysis-reuse-mode=0 / no-lossless / cbqpoffs=0 / crqpoffs=0 / rc=crf / crf=20.0 / qcomp=0.60 / qpstep=4 / stats-write=0 / stats-read=0 / vbv-maxrate=160000 / vbv-bufsize=160000 / vbv-init=0.9 / crf-max=0.0 / crf-min=0.0 / ipratio=1.40 / pbratio=1.30 / aq-mode=1 / aq-strength=1.00 / cutree / zone-count=0 / no-strict-cbr / qg-size=32 / no-rc-grain / qpmax=69 / qpmin=0 / no-const-vbv / sar=1 / overscan=0 / videoformat=5 / range=0 / colorprim=2 / transfer=2 / colormatrix=2 / chromaloc=0 / display-window=0 / max-cll=0,0 / min-luma=0 / max-luma=1023 / log2-max-poc-lsb=8 / vui-timing-info / vui-hrd-info / slices=1 / opt-qp-pps / opt-ref-list-length-pps / no-multi-pass-opt-rps / scenecut-bias=0.05 / no-opt-cu-delta-qp / no-aq-motion / no-hdr / no-hdr-opt / no-dhdr10-opt / analysis-reuse-level=5 / scale-factor=0 / refine-intra=0 / refine-inter=0 / refine-mv=0 / no-limit-sao / ctu-info=0
Default                                  : Yes
Forced                                   : No

Audio #1
ID                                       : 2
Format                                   : DTS
Format/Info                              : Digital Theater Systems
Format profile                           : X / MA / Core
Codec ID                                 : A_DTS
Duration                                 : 2 h 4 min
Bit rate mode                            : Variable / Variable / Constant
Bit rate                                 : 3 072 kb/s / 3 072 kb/s / 1 509 kb/s
Channel(s)                               : Object Based / 8 channels / 6 channels
Channel positions                        : Object Based / Front: L C R, Side: L R, Back: L R, LFE / Front: L C R, Side: L R, LFE
Sampling rate                            :  / 48.0 kHz / 48.0 kHz
Frame rate                               : 93.750 FPS (512 SPF)
Bit depth                                :  / 24 bits / 24 bits
Compression mode                         :  / Lossless / Lossy
Stream size                              : 2.65 GiB (7%)
Title                                    : Jurassic.World.2015.2160p.BluRay.x265.10bit.SDR.DTS-X.7.1-SWTYBLZ
Language                                 : English
Default                                  : Yes
Forced                                   : No

Audio #2
ID                                       : 3
Format                                   : AC-3
Format/Info                              : Audio Coding 3
Codec ID                                 : A_AC3
Duration                                 : 2 h 4 min
Bit rate mode                            : Constant
Bit rate                                 : 640 kb/s
Channel(s)                               : 6 channels
Channel positions                        : Front: L C R, Side: L R, LFE
Sampling rate                            : 48.0 kHz
Frame rate                               : 31.250 FPS (1536 SPF)
Bit depth                                : 16 bits
Compression mode                         : Lossy
Stream size                              : 569 MiB (2%)
Title                                    : Jurassic.World.2015.2160p.BluRay.x265.10bit.SDR.DTS-X.7.1-SWTYBLZ
Language                                 : English
Service kind                             : Complete Main
Default                                  : No
Forced                                   : No

Text #1
ID                                       : 4
Format                                   : UTF-8
Codec ID                                 : S_TEXT/UTF8
Codec ID/Info                            : UTF-8 Plain Text
Duration                                 : 1 h 52 min
Bit rate                                 : 46 b/s
Count of elements                        : 1252
Stream size                              : 38.7 KiB (0%)
Title                                    : English-SRT
Language                                 : English
Default                                  : Yes
Forced                                   : No

Text #2
ID                                       : 5
Format                                   : PGS
Muxing mode                              : zlib
Codec ID                                 : S_HDMV/PGS
Codec ID/Info                            : Picture based subtitle format used on BDs/HD-DVDs
Duration                                 : 1 h 53 min
Bit rate                                 : 36.1 kb/s
Count of elements                        : 2989
Stream size                              : 29.4 MiB (0%)
Title                                    : English-PGS
Language                                 : English
Default                                  : No
Forced                                   : No

Text #3
ID                                       : 6
Format                                   : PGS
Muxing mode                              : zlib
Codec ID                                 : S_HDMV/PGS
Codec ID/Info                            : Picture based subtitle format used on BDs/HD-DVDs
Duration                                 : 2 h 2 min
Bit rate                                 : 21.2 kb/s
Count of elements                        : 2338
Stream size                              : 18.6 MiB (0%)
Title                                    : French-PGS
Language                                 : French
Default                                  : No
Forced                                   : No

Text #4
ID                                       : 7
Format                                   : PGS
Muxing mode                              : zlib
Codec ID                                 : S_HDMV/PGS
Codec ID/Info                            : Picture based subtitle format used on BDs/HD-DVDs
Duration                                 : 2 h 2 min
Bit rate                                 : 22.3 kb/s
Count of elements                        : 1788
Stream size                              : 19.5 MiB (0%)
Title                                    : Dutch-PGS
Language                                 : Dutch
Default                                  : No
Forced                                   : No

Text #5
ID                                       : 8
Format                                   : PGS
Muxing mode                              : zlib
Codec ID                                 : S_HDMV/PGS
Codec ID/Info                            : Picture based subtitle format used on BDs/HD-DVDs
Duration                                 : 2 h 2 min
Bit rate                                 : 24.0 kb/s
Count of elements                        : 1916
Stream size                              : 21.0 MiB (0%)
Title                                    : Danish-PGS
Language                                 : Danish
Default                                  : No
Forced                                   : No

Text #6
ID                                       : 9
Format                                   : PGS
Muxing mode                              : zlib
Codec ID                                 : S_HDMV/PGS
Codec ID/Info                            : Picture based subtitle format used on BDs/HD-DVDs
Duration                                 : 2 h 2 min
Bit rate                                 : 22.0 kb/s
Count of elements                        : 1736
Stream size                              : 19.3 MiB (0%)
Title                                    : Finnish-PGS
Language                                 : Finnish
Default                                  : No
Forced                                   : No

Text #7
ID                                       : 10
Format                                   : PGS
Muxing mode                              : zlib
Codec ID                                 : S_HDMV/PGS
Codec ID/Info                            : Picture based subtitle format used on BDs/HD-DVDs
Duration                                 : 2 h 2 min
Bit rate                                 : 21.6 kb/s
Count of elements                        : 2136
Stream size                              : 18.9 MiB (0%)
Title                                    : Norwegian-PGS
Language                                 : Norwegian
Default                                  : No
Forced                                   : No

Text #8
ID                                       : 11
Format                                   : PGS
Muxing mode                              : zlib
Codec ID                                 : S_HDMV/PGS
Codec ID/Info                            : Picture based subtitle format used on BDs/HD-DVDs
Duration                                 : 2 h 2 min
Bit rate                                 : 25.2 kb/s
Count of elements                        : 2004
Stream size                              : 22.0 MiB (0%)
Title                                    : Swedish-PGS
Language                                 : Swedish
Default                                  : No
Forced                                   : No

Text #9
ID                                       : 12
Format                                   : PGS
Muxing mode                              : zlib
Codec ID                                 : S_HDMV/PGS
Codec ID/Info                            : Picture based subtitle format used on BDs/HD-DVDs
Duration                                 : 2 h 2 min
Bit rate                                 : 27.8 kb/s
Count of elements                        : 2454
Stream size                              : 24.3 MiB (0%)
Title                                    : Russian-PGS
Language                                 : Russian
Default                                  : No
Forced                                   : No

Text #10
ID                                       : 13
Format                                   : PGS
Muxing mode                              : zlib
Codec ID                                 : S_HDMV/PGS
Codec ID/Info                            : Picture based subtitle format used on BDs/HD-DVDs
Duration                                 : 2 h 3 min
Bit rate                                 : 22.9 kb/s
Count of elements                        : 1922
Stream size                              : 20.2 MiB (0%)
Title                                    : Czech-PGS
Language                                 : Czech
Default                                  : No
Forced                                   : No

Text #11
ID                                       : 14
Format                                   : PGS
Muxing mode                              : zlib
Codec ID                                 : S_HDMV/PGS
Codec ID/Info                            : Picture based subtitle format used on BDs/HD-DVDs
Duration                                 : 2 h 2 min
Bit rate                                 : 23.0 kb/s
Count of elements                        : 2434
Stream size                              : 20.1 MiB (0%)
Title                                    : Polish-PGS
Language                                 : Polish
Default                                  : No
Forced                                   : No

Text #12
ID                                       : 15
Format                                   : PGS
Muxing mode                              : zlib
Codec ID                                 : S_HDMV/PGS
Codec ID/Info                            : Picture based subtitle format used on BDs/HD-DVDs
Duration                                 : 2 h 3 min
Bit rate                                 : 19.2 kb/s
Count of elements                        : 2452
Stream size                              : 16.9 MiB (0%)
Title                                    : Chinese-PGS
Language                                 : Chinese
Default                                  : No
Forced                                   : No

Text #13
ID                                       : 16
Format                                   : PGS
Muxing mode                              : zlib
Codec ID                                 : S_HDMV/PGS
Codec ID/Info                            : Picture based subtitle format used on BDs/HD-DVDs
Duration                                 : 2 h 2 min
Bit rate                                 : 21.8 kb/s
Count of elements                        : 2546
Stream size                              : 19.1 MiB (0%)
Title                                    : Chinese-PGS
Language                                 : Chinese
Default                                  : No
Forced                                   : No

Text #14
ID                                       : 17
Format                                   : PGS
Muxing mode                              : zlib
Codec ID                                 : S_HDMV/PGS
Codec ID/Info                            : Picture based subtitle format used on BDs/HD-DVDs
Duration                                 : 2 h 3 min
Bit rate                                 : 15.9 kb/s
Count of elements                        : 2364
Stream size                              : 14.0 MiB (0%)
Title                                    : Korean-PGS
Language                                 : Korean
Default                                  : No
Forced                                   : No

Text #15
ID                                       : 18
Format                                   : PGS
Muxing mode                              : zlib
Codec ID                                 : S_HDMV/PGS
Codec ID/Info                            : Picture based subtitle format used on BDs/HD-DVDs
Duration                                 : 2 h 2 min
Bit rate                                 : 28.8 kb/s
Count of elements                        : 2470
Stream size                              : 25.2 MiB (0%)
Title                                    : Greek-PGS
Language                                 : Greek
Default                                  : No
Forced                                   : No

Text #16
ID                                       : 19
Format                                   : PGS
Muxing mode                              : zlib
Codec ID                                 : S_HDMV/PGS
Codec ID/Info                            : Picture based subtitle format used on BDs/HD-DVDs
Duration                                 : 2 h 3 min
Bit rate                                 : 23.9 kb/s
Count of elements                        : 2392
Stream size                              : 21.1 MiB (0%)
Title                                    : Romanian-PGS
Language                                 : Romanian
Default                                  : No
Forced                                   : No

Menu
00:00:00.000                             : en:Chapter 1
00:06:59.168                             : en:Chapter 2
00:11:01.827                             : en:Chapter 3
00:18:28.440                             : en:Chapter 4
00:25:34.866                             : en:Chapter 5
00:31:20.837                             : en:Chapter 6
00:39:23.861                             : en:Chapter 7
00:44:07.853                             : en:Chapter 8
00:48:57.225                             : en:Chapter 9
00:55:51.056                             : en:Chapter 10
01:01:21.344                             : en:Chapter 11
01:09:50.561                             : en:Chapter 12
01:15:25.479                             : en:Chapter 13
01:23:51.860                             : en:Chapter 14
01:30:14.700                             : en:Chapter 15
01:36:45.424                             : en:Chapter 16
01:41:15.652                             : en:Chapter 17
01:47:35.282                             : en:Chapter 18
01:53:06.029                             : en:Chapter 19
01:55:37.555                             : en:Chapter 20



1 个附件(点击附件名进行下载)
售价
大小
下载
时间


Jurassic.World.2015.2160p.BluRay.x265.10bit.SDR.DTS-X.7.1-SWTYBLZ[btbtt.me].torrent [详情]

0 金币
90.67K
32 次
38分钟前


#2楼

立即免费下载

author